ClassicalPopRockElectronicHip-hopJazzReggaeNot musicCountry and WorldFunkStageMilitaryBluesFor childrenLatinOther
» » The Chet Baker Quintet - Cools Out
The Chet Baker Quintet - Cools Out album download

Performer:

The Chet Baker Quintet

Title:

Cools Out

Genre:

Jazz

MP3 album size:

1162 mb

Other music formats:

AIFF AU MP3 MMF MIDI AHX WMA

Rating:

4.8 ✱

Style:

Cool Jazz, Bop

Date of release:

1986

The Chet Baker Quintet - Cools Out album download


Recorded between July 21 and 31 of 1956 and were originally released on "Chet Baker and Crew" on World Pacific. Manufactured in the . Chet Baker appears on the cover artwork and appears on the labels. Matrix, Runout (Stamped in runout, Side 1): DM B-6226 A-1/10-86.

Cool Burnin' with the Chet Baker Quintet is an album by trumpeter Chet Baker which was recorded in 1965 and released on the Prestige label. All compositions by Richard Carpenter and Gladys Bruce except where noted. I Waited for You" (Gil Fuller, Dizzy Gillespie) – 6:33. Cut Plug" (Richard Carpenter, Sonny Stitt) – 4:39. Sleeping Susan" (Jimmy Mundy) – 8:45.

Out of Nowhere: Chet Baker Quartet Live, Vol. 2 (1954 ). My Old Flame: Chet Baker Quartet Live, Vol. 3 (1954 ). The Chet Baker Quartet (1953) - with Russ Freeman. Chet Baker Quartet featuring Russ Freeman (1953). Chet Baker Ensemble (1953). Chet Baker and His Quintet with Bobby Jaspar (1956). Chet (1959) - note: this album is sub-titled The Lyrical Trumpet of Chet Baker. Chet Baker Plays the Best of Lerner and Loewe (1959). Chet Baker in Milan (Jazzland, 1959).

Reissue of Chet Baker Quintette - Chet Baker Quintette, released in 1963 on Crown Records. Chet Baker was a primary exponent of the West Coast school of cool jazz in the early and mid-'50s. As a trumpeter, he had a generally restrained, intimate playing style and he attracted attention beyond jazz for his photogenic looks and singing. Baker earned much attention and critical praise through the 1950s, particularly for albums featuring his vocals (Chet Baker Sings, It Could Happen to You). EAC extraction logfile from 5. January 2013, 8:31. Chet Baker Quintet, Cools Out. Used drive : HL-DT-STBDDVDRW GBC-H20N Adapter: 1 ID: 0. Read mode : Secure Utilize accurate stream : Yes Defeat audio cache : Yes Make use of C2 pointers : No.

Artist: The Chet Baker Quintet Title: Cools Out Year Of Release: 1986/1991 Label: Ace Records Ltd/Boplicity Records Genre: Cool Jazz, Bop, Hard Bop Quality: WavPack (is. v(image+. Tracklist: 1. The Route (5:06) 2. Lucius Lou (5:39) 3. Pawnee Junction (4:05) 4. Extra Mild (5:21) 5. Helena (4:38) 6. Jumpin Off A Cliff (4:54).

Baker Quintet" INDEX 00 05:01:58 INDEX 01 05:06:13 TRACK 03 AUDIO TITLE "Pawnee Junction" PERFORMER "Chet Baker Quintet" INDEX 00 10:41:10 INDEX 01 10:45:15 TRACK 04 AUDIO TITLE "Extra Mild" PERFORMER "Chet Baker Quintet" INDEX 00 14:45:25 INDEX 01 14:50:40 TRACK 05 AUDIO TITLE "Helena" PERFORMER "Chet Baker Quintet" INDEX 0. jpg Boplicity Records CDBOP 1. ig c. pg Chet Baker Quintet - 1956 - Cools Ou. 1991 Boplicity Records CDBOP 13. ccurip Chet Baker Quintet - 1956 - Cools Ou. og Chet Baker Quintet - 1956 - Cools Ou. v Chet Baker Quintet - 1956 - Cools Ou. v.

Cools Out. The Chet Baker Quintet. The Chet Baker Quintet - Extra Mild 05:20. The Chet Baker Quintet - Halema 04:38. The Chet Baker Quintet - Jumpin' Off A Cliff 04:55. Cools Out - The Chet Baker Quintet.

MP3 FLAC related to The Chet Baker Quintet - Cools Out