ClassicalPopRockElectronicHip-hopJazzReggaeNot musicCountry and WorldFunkStageMilitaryBluesFor childrenLatinOther
» » Gino Paoli, Enrico Rava, Flavio Boltro, Danilo Rea, Rosario Bonaccorso, Roberto Gatto, Renato Sellani - Milestones Un Incontro In Jazz
Gino Paoli, Enrico Rava, Flavio Boltro, Danilo Rea, Rosario Bonaccorso, Roberto Gatto, Renato Sellani - Milestones Un Incontro In Jazz album download

Performer:

Gino Paoli

Title:

Milestones Un Incontro In Jazz

Genre:

Jazz / Pop

MP3 album size:

1693 mb

Other music formats:

APE WAV XM VOC XM DXD RA

Rating:

4.2 ✱

Style:

Chanson

Country:

Italy

Date of release:

2008

Gino Paoli, Enrico Rava, Flavio Boltro, Danilo Rea, Rosario Bonaccorso, Roberto Gatto, Renato Sellani - Milestones Un Incontro In Jazz album download

Tracklist

1 Time After Time 4:19
2 Sapore Di Sale 6:08
3 Vivere Ancora 5:11
4 I Fall In Love Too Easily 4:53
5 La Gatta 4:31
6 Che Cosa C'è 5:10
7 Una Lunga Storia D'Amore 4:50
8 Stardust 6:05
9 Quando 2:55
10 Sassi 4:53
11 Il Cielo In Una Stanza 5:17
12 Senza Fine 6:40
Bonus Video Dvd
13 Time After Time
14 Un Incontro Di Jazz
Live Tracks
15 All Of Me 4:39
16 Sapore Di Sale 5:42
17 La Gatta 5:12
Rehearsal
18 Una Lunga Storia D'Amore 5:51
19 Time After Time 3:52
20 Stardust 4:56

Companies, etc.

  • Phonographic Copyright (p) – EMI Music Italy S.p.A.
  • Copyright (c) – EMI Music Italy S.p.A.

Barcode and Other Identifiers

  • Barcode: 5 099920 740528

Other versions

Category Artist Title (Format) Label Category Country Year
5099920740528 Gino Paoli, Enrico Rava, Flavio Boltro, Danilo Rea, Rosario Bonaccorso, Roberto Gatto, Renato Sellani Gino Paoli, Enrico Rava, Flavio Boltro, Danilo Rea, Rosario Bonaccorso, Roberto Gatto, Renato Sellani - Milestones Un Incontro In Jazz ‎(CD, Album) Blue Note 5099920740528 Italy 2007
5099920740528, 5099920740627, 5099920740597 Gino Paoli / Enrico Rava / Flavio Boltro / Danilo Rea / Rosario Bonaccorso / Roberto Gatto Gino Paoli / Enrico Rava / Flavio Boltro / Danilo Rea / Rosario Bonaccorso / Roberto Gatto - Milestones Un Incontro In Jazz ‎(SACD, Hybrid, Album + DVD-V, PAL + Dlx) Blue Note, Blue Note, Blue Note 5099920740528, 5099920740627, 5099920740597 Europe 2008

Complete your Gino Paoli, Enrico Rava, Flavio Boltro, Danilo Rea, Rosario Bonaccorso, Roberto Gatto, Renato Sellani collection.

Personnel: Gino Paoli - vocals Enrico Rava - trumpet Flavio Boltro - trumpet Danilo Rea - piano Rosario Bonaccorso - double bass Roberto Gatto - drums Renato Sellani - piano on 8. lossless TurboBit DepFile HitFile. cbr 320 kbps TurboBit DepFile HitFile.

Paoli, Rava, Boltro, Rea, Bonaccorso, Gatto - Milestones - Un Incontro In Jazz (2007). Other music, Jazz, Blues Chaton 0 465 20-03-2018, 12:51.

Personnel: Gino Paoli - vocals Enrico Rava - trumpet Flavio Boltro - trumpet Danilo Rea - piano Rosario Bonaccorso - double bass Roberto Gatto - drums Renato Sellani - piano on . Enrico Rava - Electric Five (1995). Flavio Boltro - Forty Degrees (2002). Flavio Boltro 5et - Joyful (2012). Stefano Di Battista Featuring Flavio Boltro - Volare (1997).

The album features Enrico Rava and some finest Italian musician. Milestones - Un Incontro In Jazz (2008) PS3 ISO + Hi-Res FLAC. Milestones - Un Incontro In Jazz (2008) PS3 Rip SACD ISO DSD64 . 1-bit/2. 8224 MHz 63:04 minutes Scans included 1,95 GB or FLAC(converted with foobar2000 to tracks) 24bit/88,2 kHz Full Scans included 1,27 GB. Milestones: Un Incontro In Jazz è la registrazione di un concerto tenuto al Teatro Soresina di Cremona nel 2007 da un supergruppo formato da Gino Paoli e alcuni dei nomi più importanti del jazz italiano

Oggettiva prima DI accedere ai miei.

October 2007, 22:32 for CD a-Bonaccorso-Gatto, Milestones. wav" WAVE TRACK 01 AUDIO TITLE "Time After Time" PERFORMER INDEX 01 00:00:00 FILE "02 - Sapore Di Sale.

Senza Fine (7:18) Personnel: Gino Paoli - vocals Enrico Rava - trumpet Flavio Boltro - trumpet Danilo Rea - piano Rosario Bonaccorso - double bass Roberto Gatto - drums Renato Sellani - piano on 8 Лог создания рипа. INDEX 01 00:00:00FILE "05 - La Gatta. wav" WAVE TRACK 05 AUDIO TITLE "La Gatta" PERFORMER INDEX 01 00:00:00FILE "06 - Che Cosa C'e'. wav" WAVE TRACK 06 AUDIO TITLE "Che Cosa C'e'" PERFORMER INDEX 01 00

MP3 FLAC related to Gino Paoli, Enrico Rava, Flavio Boltro, Danilo Rea, Rosario Bonaccorso, Roberto Gatto, Renato Sellani - Milestones Un Incontro In Jazz